Read More | ダウンロード APK | Aiseesoft Mac Video Enhancer

Strangest Dreams Invasion of the Space Preachers 1990 DVDRip x264

Discussion in 'Movies' started by overeem, Oct 12, 2018.

  1. overeem

    overeem Well-Known Member

    Joined:
    Dec 23, 2017
    Messages:
    9,767
    Likes Received:
    0
    Gender:
    Male
    [​IMG]

    Genre Comedy, Sci-Fi
    Actors Jim Wolfe, Guy Nelson, Eliska Hahn, Gary Brown, Jesse Johnson, John Riggs, John Marshall, Bradford Boll, Geoffrey Coward, Stacy Weddington, Piper Thayer, Michael M. Martin, Neale Clark, Tom McGee, Jimmy Walker
    Plot Strangest Dreams: Invasion of the Space Preachers is a video starring Jim Wolfe, Guy Nelson, and Eliska Hahn. A pair of dweebs are trying to vacation in the woods when they discover a crashed spaceship. They help the injured alien,...
    Code:
    http://www.imdb.com/title/tt0099853/
    Code:
    Format : Matroska 
    Format version : Version 2 
    File size : 1.19 GiB 
    Duration : 1 h 38 min 
    Overall bit rate : 1 720 kb/s 
    Writing application : HandBrake 0.9.9 
    Writing library : libmkv 0.6.5 
    
    Video 
    ID : 1 
    Format : AVC 
    Format/Info : Advanced Video Codec 
    Format profile : [email protected] 
    Format settings : CABAC / 4 Ref Frames 
    Format settings, CABAC : Yes 
    Format settings, RefFrames : 4 frames 
    Codec ID : V_MPEG4/ISO/AVC 
    Duration : 1 h 38 min 
    Bit rate : 1 430 kb/s 
    Width : 636 pixels 
    Height : 482 pixels 
    Display aspect ratio : 4:3 
    Original display aspect ratio : 4:3 
    Frame rate mode : Constant 
    Frame rate : 29.970 (30000/1001) FPS 
    Color space : YUV 
    Chroma subsampling : 4:2:0 
    Bit depth : 8 bits 
    Scan type : Progressive 
    Bits/(Pixel*Frame) : 0.156 
    Stream size : 1 012 MiB (83%) 
    Writing library : x264 core 130 r2273 b3065e6 
    Language : English 
    Default : Yes 
    Forced : No 
    Color range : Limited 
    Color primaries : BT.601 NTSC 
    Transfer characteristics : BT.709 
    Matrix coefficients : BT.601 
    
    Audio 
    ID : 2 
    Format : AC-3 
    Format/Info : Audio Coding 3 
    Commercial name : Dolby Digital 
    Codec ID : A_AC3 
    Duration : 1 h 38 min 
    Bit rate mode : Constant 
    Bit rate : 256 kb/s 
    Channel(s) : 2 channels 
    Channel layout : L R 
    Sampling rate : 44.1 kHz 
    Frame rate : 28.711 FPS (1536 SPF) 
    Bit depth : 16 bits 
    Compression mode : Lossy 
    Stream size : 181 MiB (15%) 
    Service kind : Complete Main 
    Default : Yes 
    Forced : No
    Code:
    http://rapidgator.net/file/219c5ca9aa1fb329bdb752ccf2adfad5/Strangest_Dreams_Invasion_of_the_Space_Preachers_1990_DVDRip_x264.rar.html